#TITLE:Love Is War;
#SUBTITLE:;
#ARTIST:Hatsune Miku;
#TITLETRANSLIT:;
#SUBTITLETRANSLIT:;
#ARTISTTRANSLIT:;
#CREDIT:;
#BANNER:Hatsune Miku - Love Is War-banner.jpg;
#BACKGROUND:Hatsune Miku - Love Is War-bg.jpg;
#LYRICSPATH:Hatsune Miku - Love Is War.lrc;
#CDTITLE:CDTitle.png;
#MUSIC:Hatsune Miku - Love Is War.ogg;
#OFFSET:0.640;
#SAMPLESTART:14.420;
#SAMPLELENGTH:12.000;
#SELECTABLE:YES;
#BPMS:0.000=87.500;
#STOPS:;
#BGCHANGES:;
// cache tags:
#FIRSTBEAT:5.500;
#LASTBEAT:173.000;
#SONGFILENAME:songs/Vocaloid Party/Hatsune Miku - Love Is War/Hatsune Miku - Love Is War.sm;
#HASMUSIC:1;
#HASBANNER:1;
#MUSICLENGTH:119.098;
// end cache tags

//---------------dance-single - ----------------
#NOTES:
     dance-single:
     :
     Challenge:
     10:
     0.669,0.648,0.294,0.151,0.907,505.000,35.000,18.000,8.000,1.000:
0000
0000
0000
0000
,
0000
0000
0000
0000
0000
0000
1000
0001
1000
0000
0000
0000
0010
0000
0100
0000
,
0001
0010
0000
0100
1000
0000
0010
0000
0100
0000
0010
0000
1000
0000
0010
0000
,
0100
0001
0000
0001
0010
0000
0100
0010
0001
0000
0000
0000
0100
0000
0000
0000
,
0001
0100
0000
0010
0100
0000
0010
0000
1001
0000
0000
0000
1010
0000
0000
0000
,
0101
0000
0000
0000
0000
0000
0000
0000
0001
0100
0010
0000
0000
0000
0000
0000
1000
0000
0100
0010
0100
0000
0010
0000
0001
0000
0010
0000
0100
0000
0000
0000
,
1000
0000
0010
0000
0100
0000
0010
0000
1000
0000
0000
0000
0001
0000
0100
0000
0001
0000
1000
0010
1000
0000
0001
0000
0100
0000
0010
0000
1000
0000
0000
0000
,
0001
0000
0010
0000
0100
0000
0010
0000
0100
0000
0000
0000
1000
0000
0100
0000
1000
0000
0001
0010
0001
0000
0100
0000
0001
0000
0100
0000
0010
0000
0000
0000
,
1000
0000
0010
0000
0100
0000
0001
0000
0010
0000
0000
0000
0001
0000
0010
0000
0100
0000
1000
0010
1000
0000
0100
0000
0010
0000
0001
0000
0010
0000
0000
0000
,
0001
0000
0100
0000
0001
0000
0010
0000
0M11
0000
0002
0000
0M00
0000
1003
0000
1M10
0000
0010
0100
0010
0000
1000
0000
0001
0000
0100
0000
0010
0000
1000
0000
,
0010
0000
1100
0000
0010
0000
1000
0000
0110
0000
0000
0000
0100
0000
0010
0000
1000
0000
0001
1000
0001
0000
0010
0000
0001
0000
0100
0000
0010
0000
1000
0000
,
0010
0000
0100
0000
0001
0000
1000
0000
0110
0000
0000
0000
0001
0000
1000
0000
0010
0000
0100
0001
0100
0000
0010
0000
1000
0000
0100
0000
1000
0000
0100
0000
,
1000
0000
0101
0000
0100
0000
0010
0000
0110
0000
0000
0000
0010
0000
0100
0000
0010
0000
0100
0001
0100
0000
0001
0000
1000
0000
0010
0000
0100
0000
0010
0000
,
1000
0001
0010
0100
1000
0010
0100
0001
0020
0000
0030
0000
0021
0002
0033
0000
,
0100
0001
0100
0010
1000
2000
3000
0000
1000
0000
0000
0000
0210
0020
0330
0000
,
1000
0001
0100
0010
0100
0200
0300
0000
0100
0000
0000
0000
1002
2000
3003
0000
,
0001
1000
0010
0100
0010
0020
0030
0000
0010
0000
0000
0000
0102
0200
0303
0000
,
0001
0010
0100
0010
2100
0000
3000
0000
1001
0000
0000
0000
0001
0000
0000
0000
,
0100
0010
0000
1000
0010
0000
0100
0000
0010
0000
1000
0000
0110
0000
1000
0000
,
0010
0100
0000
0001
0100
0000
0001
0000
0100
0000
0010
0000
1010
0000
0100
0000
,
0001
0100
0010
0000
1000
0001
0000
0010
0100
0000
1000
0000
0001
0000
0100
0000
,
0001
0010
0100
0000
1000
0000
0000
0000
0001
0000
0100
0000
0101
0000
0001
0000
,
1000
0001
0010
0100
0010
0000
0001
0000
1000
0000
0100
0000
1010
0000
1000
0000
,
0001
0100
0000
0010
0100
0000
0001
0000
1000
0001
0000
1000
0100
0010
0001
0000
,
0100
0010
0000
0100
0010
1000
0010
0000
0100
0001
0000
1000
0001
0010
0100
0000
,
1000
0001
0010
0100
1000
0000
0000
0010
0100
0000
0001
0000
1000
0000
0001
0000
,
0100
0010
0100
0001
0010
0100
1000
0000
0001
1000
0010
0100
0001
0010
0100
0000
,
1000
0001
0100
0001
1000
0001
0010
0000
0001
1000
0010
0100
0001
0100
0010
0000
,
0100
0001
1000
0010
1000
0000
0000
0001
0100
0000
0010
0100
0010
0000
1000
0010
,
1000
0000
0000
0001
0000
0000
0000
0000
0000
0100
0000
0000
0010
0000
0000
0000
0000
0000
0100
0000
0000
0010
0000
0000
1000
0000
0000
0010
0100
0010
0100
0000
0000
0010
0000
0000
0100
0000
0000
0001
0000
0000
0100
0000
0000
0000
0000
0000
,
0001
0000
0000
0000
0000
0000
1000
0000
0000
0100
0000
0000
0010
0000
0000
0000
0000
0000
0001
0000
0000
0010
0000
0000
0100
0000
0000
1000
0100
1000
0100
0000
0000
1000
0000
0000
0001
0000
0000
0010
0000
0000
0100
0000
0000
0000
0000
0000
,
0010
0000
0000
0000
0000
0000
0100
0000
0000
1000
0000
0000
0100
0000
0000
0000
0000
0000
1000
0000
0000
0001
0000
0000
0100
0000
0000
0001
0100
0001
0100
0000
0000
0010
0000
0000
0100
0000
0000
0010
0000
0000
1000
0000
0000
0000
0000
0000
,
0001
0000
0000
0100
0000
0000
0001
0000
0000
0100
0000
0000
0010
0000
0000
0000
0000
0000
1000
0000
0000
0010
0000
0000
0100
0000
0000
0001
1000
0001
1000
0000
0000
0010
0000
0000
0100
0000
0000
0010
0000
0000
1000
0000
0000
0000
0000
0000
,
0100
0000
1000
0000
0001
1000
0100
1000
0200
0000
0000
0000
0000
0000
1000
0000
,
0020
0000
0000
0000
0000
0000
0000
0000
1001
0000
0000
0000
0330
0000
0000
0000
0001
0000
0100
0010
1000
0000
0010
0000
1000
0000
0100
0000
0010
0000
0000
0000
,
0001
0000
1000
0000
0100
0000
1000
0000
0100
0000
0010
0000
0001
0000
0000
0000
1000
0000
0001
0100
0010
0000
0100
0000
0001
0000
0100
0000
0010
0000
0000
0000
,
1000
0000
0010
0000
0100
0000
0001
0000
0100
0000
0010
0000
1000
0000
0000
0000
0001
0000
0100
0010
1000
0000
0001
0000
0100
0000
0010
0000
1000
0000
0000
0000
,
0110
0100
0001
0010
0011
0010
0100
0000
1100
0100
1000
0010
1001
1000
0010
0000
,
0101
0000
0001
0000
1000
0000
0010
0000
1M10
0000
2M00
0000
0M00
0000
3M01
0000
0M11
0000
0001
0010
0100
0000
1000
0000
0010
0000
0100
0000
0010
0000
0000
0000
,
1000
0000
0010
0000
1000
0000
0010
0000
0100
0000
0010
0000
1000
0000
0000
0000
0001
0000
0010
0100
1000
0000
0010
0000
0100
0000
0010
0000
1000
0000
0000
0000
,
0001
0000
1000
0000
0001
0000
0010
0000
0100
0000
0010
0000
0001
0000
0000
0000
0100
0000
0010
1000
0001
0000
0100
0000
0001
0000
0100
0000
0010
0000
0000
0000
,
1001
0001
0100
0010
1010
1000
0010
0000
0110
0100
0001
0010
1100
0100
0010
0000
,
0011
0001
0100
0001
1010
0100
0001
0100
1002
0000
0000
0000
0000
0000
0003
0000
;

//---------------dance-single - ----------------
#NOTES:
     dance-single:
     :
     Hard:
     8:
     0.462,0.490,0.210,0.521,0.269,298.000,25.000,62.000,41.000,1.000:
0000
0000
0000
0000
,
0000
0000
0000
0000
2020
0000
3000
1000
,
0230
0000
0001
0310
0002
0100
0013
1000
,
0020
0000
2030
0001
0020
3000
0200
0030
,
0002
0300
0000
1003
0020
0000
1000
0000
,
0130
0000
0000
0000
0001
1000
0000
0000
0010
0100
0001
1000
0010
0000
0100
0001
,
0100
0000
0010
1000
0010
0000
1010
0000
0010
1000
0001
0100
0010
0000
1000
0100
,
1000
0000
0001
0010
0001
0000
1001
0000
0100
0010
0100
0001
1000
0000
0010
0100
,
0001
0000
0100
0010
1000
0001
0100
0000
0001
1000
0001
1000
0010
0000
0100
0000
,
0001
1000
0010
0100
0020
0000
0000
0000
1030
0001
0100
0010
0100
0000
0001
1000
,
0001
0100
0010
0000
0100
0010
1000
0000
0010
0100
0010
1000
0010
0000
0100
0001
,
0100
0000
0010
0000
1000
0000
0001
0010
0100
0000
1000
0001
0100
0001
0100
0000
,
0010
1000
0100
0010
0001
0000
1000
0010
0100
0000
0001
0100
0010
0000
1000
0010
,
1000
0001
0100
0010
2000
0000
3000
0000
M000
0000
0000
0000
0101
0000
0000
0000
,
0100
0010
0000
0100
0001
1000
0000
0000
0010
0000
0010
0000
1010
0000
0000
0000
,
1000
0001
0000
0100
0010
0100
0000
0000
0001
0000
0001
0000
0101
0000
0000
0000
,
1000
0010
0000
0100
0001
0100
0000
0000
0001
0000
1000
0000
0110
0000
0100
0000
,
0001
1000
M000
0000
0010
0000
2000
0000
,
0002
3000
0203
0001
0320
0000
0000
1030
,
0100
0000
1010
1000
M002
0000
0100
0103
,
1M20
0000
0000
0000
2000
0030
0002
3000
,
0200
0003
2000
0300
0200
3000
0020
0300
,
1000
M100
0100
1030
2002
0000
0003
001M
,
3200
M000
2300
3002
M203
000M
0320
1000
,
0200
0330
0MM0
0020
2030
0000
0200
3000
,
0002
0300
0200
0003
2000
0300
3000
0001
,
0100
0000
0000
0000
0010
0000
0000
0000
1000
0000
0000
0000
0010
0000
0000
0000
0200
0000
0000
0000
000M
0000
0000
0000
0002
0000
0000
0000
0000
0000
0000
0303
,
0202
0000
0000
0000
0000
0000
0000
0000
0303
0000
0000
0000
1000
0000
0000
0000
0020
0000
0000
0000
M000
0000
0000
0000
2000
0000
0000
0000
0000
0000
0000
3030
,
2020
0000
0000
0000
3030
0000
0000
0001
0100
0000
0010
1000
0010
0000
0100
0002
,
1000
0000
M000
0000
0103
0000
0000
0001
2000
0000
0000
0000
0010
0000
0MM0
0000
,
0200
0000
0000
0000
3300
0000
0100
1000
0001
0000
0010
0000
0001
0000
1000
0000
,
0010
1000
0010
0100
0010
1000
0001
0100
,
0010
0000
0000
0000
1000
0000
1000
0000
0010
0000
0010
0000
0202
0000
0000
0303
,
0M0M
0000
0000
0000
0000
1000
0100
0010
M002
0M00
M000
0M00
M000
0M00
10M0
0M00
,
20M0
0M00
00M3
0M00
3010
0000
0000
0000
1010
0000
0000
0000
0110
0000
0000
0000
,
0101
0000
0001
0000
1000
0000
001M
0000
M100
0010
0100
0010
0100
0000
0001
0000
,
1000
0000
0010
0000
1M00
0000
00M1
0000
0100
0001
0100
0001
0100
0000
0010
0000
,
2M10
0001
0010
30M1
1020
0100
1000
M130
,
021M
0000
0001
0000
0010
0000
0301
0000
1000
0000
0001
0100
0001
0000
1M00
0010
,
2000
0000
0002
0000
0010
0003
300M
1000
,
0020
0000
0200
0030
0002
0300
0000
1003
,
0010
0100
0101
0101
1000
0001
1001
1001
,
1000
0010
0110
0110
0M20
0000
0000
0000
,
0000
0030
0000
0000
;

//---------------dance-single - ----------------
#NOTES:
     dance-single:
     :
     Medium:
     5:
     0.363,0.393,0.160,0.193,0.160,261.000,19.000,23.000,1.000,0.000:
0000
0000
0000
0000
,
0000
0000
0000
0000
2000
0000
3000
0010
,
0100
0000
0010
0000
1000
0001
0100
0000
,
0001
1000
2000
3002
,
0203
0000
0300
0010
0100
0000
0001
0000
,
2000
0000
0000
3000
M000
0000
0000
0000
0110
0000
0000
0000
1000
0000
0010
0000
,
0100
0001
0000
0100
0001
0000
0000
0000
1100
0000
0000
0000
0001
0000
0000
0000
,
0100
0010
0000
0010
0100
0000
0001
0000
1000
0000
0000
0000
0001
0000
0100
0000
,
0001
0010
0000
0001
0010
0000
0000
0000
1001
0000
0000
0000
1000
0000
0001
0000
,
1000
0000
0001
0000
1000
0010
0000
1000
0001
0000
1000
0000
0001
0000
0100
0000
,
0010
1000
0010
1000
0010
0000
0000
0000
1000
0000
0010
0000
0100
0000
0001
0000
,
0100
0001
0100
0001
0100
0000
0000
0000
0010
0000
1000
0000
0001
0000
0100
0000
,
0010
0100
0010
0100
0010
0000
0000
0000
1000
0000
0001
0000
1000
0000
0010
0000
,
1000
0000
1000
0000
0001
0000
0001
0000
1000
0000
0000
0000
2010
3000
0000
0000
,
0000
0000
0000
0000
0102
0003
0000
0000
1000
0000
0000
0000
1002
0003
0000
0000
,
0000
0000
0000
0000
0120
0030
0000
0000
1000
0000
0000
0000
0012
0003
0000
0000
,
0000
0000
0000
0000
1200
0300
0000
0000
0001
0000
0000
0000
2001
3000
0000
0000
,
1000
0010
0000
1000
0010
0000
0000
0000
0000
0000
0000
0000
1000
0000
0001
0000
,
1000
0000
0001
0100
0001
0000
0010
0001
,
0010
0000
1100
0000
0110
0000
0001
1000
,
0010
0000
1000
0010
,
0100
0001
0100
0010
,
1000
0001
0100
0001
1000
0000
0000
0000
,
0100
1000
1010
0100
,
0101
0000
0000
1000
0010
0000
1000
0000
,
0010
0000
0100
0000
0220
0000
0330
0001
,
1000
0000
0010
0100
0020
0100
0230
0001
,
0302
0000
0003
1000
0020
1000
0230
0001
,
0320
0000
0030
0000
1000
0000
0001
0100
,
0020
1000
0130
0010
0100
0000
0001
0000
,
1000
0010
1000
0010
1000
0000
0000
0000
0001
0000
0100
0000
0001
0000
0100
0000
,
0001
1000
0001
1000
0001
0000
1000
0000
0010
0000
0100
0000
0001
0000
1000
0000
,
0010
0100
0010
0100
0010
0000
1000
0000
0010
0000
0100
0000
0020
0000
0000
0000
,
0130
0001
0000
0100
0001
0000
1000
0000
0010
0000
0000
0000
0000
0000
0000
0000
,
0200
0000
0310
0000
0110
0000
1000
0001
,
1000
0010
1000
0010
1000
0000
0001
0000
0100
0000
0000
0000
0010
0000
1000
0000
,
0001
1000
0001
1000
0001
0000
0100
0000
0010
0000
0000
0000
1000
0000
0001
0000
,
0100
0010
0100
0010
0100
0000
0001
0000
1000
0001
1000
0001
1000
0000
0010
0000
,
0100
0001
0100
0001
0100
0000
0000
0000
1010
0000
0000
0000
1000
0000
0001
0000
,
0100
0010
0000
0100
0010
0000
1000
0000
1001
0000
0000
0000
1000
0000
0010
0000
,
0100
0001
0000
0100
0001
0000
1000
0000
1010
0000
0000
0000
0100
0000
0010
0000
,
0100
0001
1000
0001
1000
0010
0100
0001
,
1000
0010
0100
0010
0100
0000
0000
0000
;

//---------------dance-single - ----------------
#NOTES:
     dance-single:
     :
     Easy:
     3:
     0.215,0.250,0.034,0.118,0.000,161.000,4.000,14.000,0.000,0.000:

0000
0000
0000
0000
,
0000
0000
0000
0000
,
1000
0001
0100
0010
,
0100
0001
1000
0010
,
0100
0000
0000
0001
2000
0000
0010
0000
,
0001
0000
3010
0000
1000
0001
0010
0000
,
0001
0000
1001
0000
0100
0010
0100
0000
,
0001
0000
0110
0000
0100
0001
1000
0000
,
0010
0000
1010
0000
1000
0100
0010
0000
,
0002
0003
1000
0010
,
0100
0100
0001
0000
1000
0000
0100
0000
,
1000
1000
0010
0000
0100
0000
0001
0000
,
0010
0010
0001
0000
0200
0000
0320
0000
,
2030
3002
0103
0100
,
0001
0001
1000
1000
,
0010
0010
0100
0100
,
0001
0001
0100
0100
,
0010
0010
1000
0010
,
0100
0000
0001
1000
,
0010
0000
0100
0001
,
0100
0000
0010
1000
,
0100
0000
1000
0001
,
0100
0010
0100
0000
,
0001
1000
0010
0100
,
0010
0000
1000
0010
,
0100
0000
0001
0000
0101
0000
0000
0001
,
0010
0001
1000
0010
,
0100
0000
0000
0010
1000
0000
0001
0000
,
0100
0000
0010
1000
,
0020
0130
0001
1000
,
0010
0000
0000
0100
0010
0000
1000
0000
,
0001
0100
0010
1000
,
0001
0000
1000
0000
0010
0100
0010
0000
,
0000
0000
2000
0000
,
0010
0000
0001
3000
0010
0000
0100
0000
,
0001
1000
0100
0000
1000
0000
0000
0001
,
0100
0000
0010
0100
0010
0000
0000
1000
,
0020
0100
0230
0001
,
0302
1000
0103
0000
,
0001
0000
0100
0000
0010
0000
0000
1000
,
0010
0000
0100
0000
0001
0000
0000
1000
,
0200
0010
2300
0001
,
3020
1000
0130
0000
;

//---------------dance-single - ----------------
#NOTES:
     dance-single:
     :
     Beginner:
     1:
     0.110,0.125,0.042,0.008,0.000,86.000,5.000,1.000,0.000,0.000:
0000
0000
0000
0000
,
0000
0000
0000
0000
,
0001
0000
1000
0000
,
0001
0000
0100
0000
,
0010
0000
1001
0000
,
1001
0000
2000
0000
,
0001
0000
0010
0000
,
0001
0000
0000
3000
0010
0000
0000
0000
,
1000
0000
0001
0000
,
0100
0010
0100
0000
,
0001
0000
1000
0000
,
0001
0000
0100
0000
,
0010
0000
0100
0000
,
0001
0000
0011
0000
,
1000
0000
0010
0000
,
0100
0000
0001
0000
,
1000
0000
0010
0000
,
0100
0000
0010
0000
,
1000
0000
0001
0000
,
0100
0000
0001
0000
,
1000
0000
0010
0000
,
1000
0000
0010
0000
,
0100
0001
0100
0000
,
0001
1000
0001
0000
,
1000
0000
0010
0100
,
0010
0000
0100
0000
,
0001
0000
1000
0000
,
0010
0000
0100
0000
,
0001
0000
1000
0000
,
0001
0010
0001
0000
,
1000
0000
0010
0000
,
0100
0000
0001
0000
,
0100
0000
0010
0000
,
0000
0000
1001
0000
,
1000
0000
0001
0000
,
0100
0000
0010
0000
,
1000
0000
0001
0000
,
0100
0000
0001
0000
,
0100
0000
0001
0000
,
1000
0000
0010
0000
,
1000
0000
0010
0000
,
0100
0000
0010
0000
,
0100
0000
0110
0000
;
